Hevc 10 bit or 12 bit


Hevc 10 bit or 12 bit

264/MPEG-4 AVC (Advanced Video Coding). 6 release, which fixes an important regression that appeared on 3. Sep 12, 2017 Kontron and Beamr Enable 18 Live Channels of 10-bit 4K HEVC Video on a Single 2U Platform. 265 / HEVC encoder software library. This 10-bit content can have more detail in the bright areas of the image, and/or more details in the dark parts of the image. Why does 10-bit save bandwidth (even when content is 8-bit)? 10-bit compression of a 10-bit source provides a better quality than using 8-bit compression algorithms. But exactly the 8 bit format is super performant and super quality also on slower computers and for that much more important as 10 bit, which can not be played without drop frames on the MBPs. Playback is perfect within Photos, and so is transcoding for video export. Because of the additional bit depth option, Main 10 has the potential to provide better video quality than Main. 6. 264) with AAC, AC3 Bypass and MPEG-1 L2 audio. I also tried an 8-bit sample, and while that did run much better and appears to have HW acceleration working, still is noticeably choppy. RoChess July 5, 2018. Results 1 to 6 of 6 HEVC: 8 vs 10 vs 12bit comparison using Netflix VMAF algorithm. 265/HEVC On Mar 10 The HEVC 10-bit codec can be natively decoded and played by computers with 7 th Generation or later Intel Core i7 chips. FFmpeg is now supporting 10-bit and 12-bit encoding for x265, But I couldn't find the proper command line options for encode them in those bit depths. 265 and MPEG-H Part 2, is a video . 264 H. At the same bitrate and transcoding from an 8-bit source 10-bit HEVC is better than 8-bit HEVC, because it Jul 1, 2018 As of today, the latest version of Handbrake (v1. 1 Tigole MEGA World War II American Army Medic becomes the first man in American history to receive the Medal of Honor without firing a shot. How to copy Scheme 2: HandBrake 0. 000fps (in MP4, 'Exodus' and 'Life of Pi' samples) HDR 10-bit HEVC 25. hevc codec free download - HEVC, XviD Video Codec, Media Player Codec Pack, and many more programs Apple iOS 12. The Decoder has been tested with more than 3000 industry standard test streams and is compatible with any ASIC/FPGA/Software encoders in the market. 265 (HEVC) transcoding at 4K resolutions needs 10-bit colours Discussion Question about HEVC Main10/10-bit and VP9 10-bit hardware video decoding (self. 265/HEVC movies. 12. With HDR being incorporated into essentially all new TVs, 10-bit hardware decoding will become standard whether the panel is actually 8-bits or not. Datenrate für Main- und Main 10-High Efficiency Video Coding (HEVC) – standard kompresji wideo opracowany jako następca H. Very flexible configurable the number of channels inputs to plug-in HD-MI board. AMR NB. Those wishing to learn about more technical details on 10-bit HEVC can read this Imagination blog post. 0 [1ST ON NET][techbangla. the 10-bit HEVC encoding with 8-bit input video is the most recommended option if computation Everything you need to know about 4K TV color: HDR, WCG and 10-bit color by Stephen on . Picktorrent: alien resurrection hevc 10 bit directors cut - Free Search and Download Torrents at search engine. The Emergence of H. 265 and MPEG-H Part 2, is a video compression standard, designed as a successor to the widely used AVC (H. QUICK COMPARE: AVC vs. HEVC B-frames support **** VP9 10/12 bit decode support is HEVC 10 bit washed out colours. The pipeline is following. – resatee Comparative study of 8 and 10-bit HEVC encoders and 12. Mac OS X 10. NVIDIA Video Codec SDK technology is used to stream video to Twitch with NVIDIA ShadowPlay . Direct download via magnet link. On Windows 10, you can natively play HEVC videos in the default Films & TV app or through Windows Media Player. By considering this property, we obtain LA for 10 bit quantized HDR videos based on the Barten CSF model as follows: AVS Forum | Home Theater Discussions And Reviews > Video Components > Home Theater Computers > Which graphics card to play files like these smooth? . Color depth is also known as bit depth, and is the number of bits used to display the color of a single pixel. Its predecessor, "Apollo Lake," only supported hardware decoding up to VP9 8-bit Profile0. bit,10- -bit, and 12-bit versions. The bit rate is IPTV Transcoders for re-encoding, wrapping and adaptive bit-rate of HD/SD streams for Over-The-Top (OTT) services, mobile delivery and ISR footage disseminationCategory H. Nach der Neuinstallation müssen Nutzer die "HEVC Video Extension" aus dem Microsoft High Efficiency Video Coding (HEVC) – standard kompresji wideo opracowany jako następca H. 2 etc. Testing 10-bit H. 265 was built to match the capabilities of future screens and includes support for 10-bit Sep 12, 2017 Kontron and Beamr Enable 18 Live Channels of 10-bit 4K HEVC Video on a Single 2U Platform. 2. So, on both of my MBPs, 15" late 2013 and 13" early 2015 it is not available. resolution up to 4K x 2K (4096x2160) @ 30Hz - Supports D-Sub with max. Some NVidia graphics cards have 10-bit decoding support (Maxwell I think it was) but even they output 8 bits only. I have the 2014 HU7500, and from USB, I can play HEVC encoded MKV or x264 8bit and 10bit without a problem. org Rome S01 Genuine BD Rip 1080p h265(HEVC) 10 Bit AC3 5. 1 Subtitles (EN IT ES FR)/Music/Ivan Granatino - A' Storia e Maria (with Franco Ricciardi). Certainly, you can get builds that already enable 10 or even 12-bit support - but I’m usually a glutton for punishment so I thought I would see how hard it was to just build it manually. 10 bit compression through ffmpeg (-pix_fmt yuv420p10le) does not work anymore. 12 EUs inside (Up to 700MHz) Initially we included HEVC (H. As HEVC is very computationally complex, this will provide a more consistent experience. 264, HEVC has multiple profiles. Could be i don't know personally. I have been exploring the Re: NX series video - HEVC 10-12 bit, 4. The change-log entry reads "Add support for Gemini Lake (aka. 10 is the latest server version. . resolution up to 2048x1536 @ 60Hz - Supports The Vero 2 does not support 10-bit H264/H265 hardware decoding. Today's increasingly demanding applications, such as Ultra-HD TV, wireless display, and high quality video capture are driving the need for new video encoding and decoding technologies. My comment was about the native 10-bit HEVC 4K files. hardware) submitted 2 years ago by procyon82 I'm planning on buying a new laptop this fall and saw that Kaby Lake supports HEVC Main10/10-bit and VP9 10-bit hardware video decoding. AAC. Targeted at Broadcast and Contribution markets the IP is already market proven in the leading Video Conferencing solution currently in operation. 2020 recommendations, H. 264 was primarily used at low bit-rates for distribution applications. 0. 1% (LB). Gstreamer Version 1. 1 This output (video stream) from ffmpeg is played fine with HEVC 10-Bit: Stream #0:0: Video: hevc (Main 10), Stack Exchange Network Stack Exchange network consists of 174 Q&A communities including Stack Overflow , the largest, most trusted online community for developers to learn, share their knowledge, and build their careers. Video Converter Ultimate offers several convenient ways to add files to it. It is a sub frame latency decoder with I think the NVIDIA GTX960 has an onboard HEVC decoder but not too sure of the spec for HEVC as the streams can be 8,10,12 bit colour. What You Need to Know About HEVC Video in macOS High Sierra and iOS 11 (or half the bit rate) of H. hevc 10 bit or 12 bit 0 and comes equipped with a hardware-based H. The speculations are that this codec could appear in future Sony cameras with 8k support. 4,000 nits is an extremely high amount of light, and there are few TVs that can actually produce this even today. Besides, you can also extract audio from video files and convert to MP3, AAC, WMA and WAV. Bring Hollywood home with the leading video playback, Blu-ray and DVD software, Corel® WinDVD® Pro 12. 0 ('Tardigrades Will Inherit The Earth') 64-bit Writing library : libebml v1. MP4 files created by the program can be News November 6th, 2018, FFmpeg 4. Regular 8-bit 720p/1080p HEVC stuff transcodes properly on the Plex App (Samsung TV). (Thanks to hdmkv for putting together these links) Kodi users are a demanding bunch when it comes to media players with Kodi & having as-close-to-perfect video Pazera Free MP4 Video Converter is a free program that allows you to convert almost any video and audio file to MP4 format. 265 or HEVC video decoder Play HEVC coded videos on Windows 10 A Codec is a combination of Coder and Decoder or Compressor and Decompressor, and it is a software that is used to compress or decompress a digital media file Kickass Torrent is a fast Torrent search engine lists verified Outlander S04E13 (2160p NF WEB-DL x265 HEVC 10bit SDR AAC 5 1 Joy) [UT – hash The Ittiam HEVC software encoder, in conjunction with the SYMKLOUD MS2910 converged hardware platform, can encode up to six (6) live 4Kp60 10-bit HDR video streams using up to 18 Intel® Xeon® E3-1200 series processors in a single 2U platform. Popular Mac Apps VLC Media Player (64-bit) View all Scarica [DDRC] Getsuyoubi no Tawawa (BDRip 1080p HEVC 10-bit FLAC) Torrent 10 bit color depth AVC or HEVC in AME michaele88663001 Mar 14, 2016 4:37 PM Hello, I'm trying to create UHD files in Adobe Media Encoder (2015. Mission: Impossible: Fallout (2018) IMAX in 1080p, encoded with x265 in HEVC and AAC 7. I haven't followed the latest discussions, so I'm not sure what the current consensus is on 10-bit x265 for 8-bit video. Work is being done on additional profiles for H. 1, but I could not decode it. I can answer your first question. Does 10 bit and 12 bit HEVC actually require more CPU performance when decoded in software? I didn't think so, at least not significantly. 12 Installation 10. 265, support for 10-bit colour will presumably be standard for most devices. "Their PowerDirector 12 Download Sharky's Machine (1981) (1080p BluRay x265 HEVC 10bit AAC 5. How can I view 10-bit HEVC as 10-bit High Efficiency Video Coding (HEVC) How can I view 10-bit HEVC as 10-bit - Doom9's Forum Welcome to Doom9 's Forum, THE in-place to be for everyone interested in DVD conversion. 940fps (in MP4, Camp by Sony) DolbyVision 10-bit HEVC 23. 265/HEVC videos- Quick Fix including codec, aspect ratio, bit rate, frame rate, sample rate, and audio channel. 264 Encoding with 4:2:2 for Broadcast Contribution Pierre Larbier ATEME, Bièvres, France Abstract Until now, AVC/H. 265)10 bit, H. 265 HEVC Incidentally, this is the same as "24-bit" color ("True" color) when we're talking about computer displays or photography -- and it's a good balance between picture quality and the amount of data needed to describe the video. 10-bit colors, a concept called ‘color depth’ is outlined as follows. (12)), based on a older version of the HEVC reference software (HM 5. 265/HEVC Codec Decoding and Encoding tools review for us to woke well with H. 2016With the increasing availability of OLED displays and 10 bit monitors, which offer Multi-stream and 4K are key drivers for hardware HEVC decode and encode, 21 Nov 2017 8 bit, 10 bit, 12 bit, 4K HDR What do these all mean? In this guide we attempt to simplify the differences and help you make a smarter buying 25 Jul 2018 I look into the source and notice it is 12bit what the **** So as many of you remember from the x264 era, 10bit encoding has merits even hi so I want to encode to x265 with 10 bit how do i do that? same for 12 bit?18 Jan 2018 The HEVC codec allows for 10 bit color depth encodes at 1080p. Both coreshave four pipeline stages: two in the even and odd part CSDA circuit, and two in ECATs. There is really no native 10-bit 1080p content. Trouble with HEVC 10 bit LE file on Windows 10 Post by fatmatt14 » Mon Jun 27, 2016 4:54 pm I'm using VLC 2. An example of HEVC 10-bit encoding can also be found in the attached code sample. Apr 21, 2016 6 This is not the final word on the issue but there's a high chance it might be. Samsung's 2014 and 2015 sets all support native x264/HEVC 10 bit media playback. You signed out in another tab or window. 264, which can extend to cover 4K television but wasn’t designed with the feature in mind, H. This perfectly fit with plans for deployment of the HEVC Main 10 profile by several consumer devices and services. Change is coming. Bit depth : 10 bits MrMC can handle 720p HEVC. Moreover, settings such as modifying the bit rate, frame rate, channels are available. 264 or MPEG-4 Part 10). Support for 8/10/12 bit color depths in HandBrake! February 5, 2016 The issue with x265 is due to the wrong SONAME in the 10/12 bit variants that wer causing Its 2160P 60 FPS, Main 10 with the 10 bit colour and its level 5. As a result of this engagement Korusys is pleased to offer to the market place the world's first Professional level 12 bit 4kP60 HEVC decoder core for FPGA fabric. 1 EN Subs EN ES FR TV 2 hours VLC Media Player For Windows 10 64 Bit – VLC Press Person is the most used and effective adjustable format. 0 [b]gst-launch-1. High Efficiency Video Coding (HEVC), also known as H. x265 supports the Main, Main 10, Main 12 and Main Still Picture utilizing a bit depth of either 8 bits or 10 bits per sample YCbCr with x265 HEVC Upgrade When you say "It has not been implemented for 10/12 bit", do you mean that the decoder will always output 8bit images and there is no way to get 10/12bit output? Hi, The SW is not ready and 10/12bit HEVC stream cannot be played on r27. 0), it was 10 or 12-bit might even look a tiny bit worse. Also the transcode uses 98% CPU time yet any other transcode type uses 50-83% and never higher. ts ! tsdemux ! queue ! h265parse ! omxh265dec ! nvoverlaysink[/b] In TX1, the above pipeline works well. Subject Poster Group Age; 1. On some of my Macs I can generate 8-bit HEVC with compressor on some not. Kaby Lake should be the first Intel CPU to have HW decoding of 10-bit HEVC. Can someone specify that options? ffmpeg video-conversion hevc First, like H. 1 "al-Khwarizmi", a new major release, is now available! Some of the highlights:Convert videos to MP4 with Xilisoft MP4 Converter! Additional supported video formats include AVI, MPEG, WMV, MOV, RM, MP4, 3GP, H. XVID. 10-bit HD HEVC enables video streaming apps, like NetFlix, to use lower bandwidth to deliver HD quality video streams. vol03+03. WinX DVD Ripper Free Edition is the best free DVD ripping software to digitize DVD discs to MP4, ISO, AVI, H264, HEVC, MP3, HDD, Plex, NAS, TV, iPhone. The TMEM is designed using sixty-four 12-bit registers, where the output data from Core-1 is transposed and fed into Core-2. 9 JNDs. 1 Beta on my 2016 15-inch MacBook Pro (Skylake). 7. Increasing the bit depth of a display product (and matching the source 06/12/2018 · Best Free HEVC Players to Play HEVC They immediately devote themselves to upgrade 5KPlayer to fully support playing HEVC 8-bit, 10-bit and even 12 В Детройте уже давно чуть ли не самый высокий уровень преступности, и полиции не хватает 22/04/2018 · I can't play 4K HEVC 10 bit HDR content with latest and greatest VLC 3. 3. AMR WB 3G2 (3GPP2) H. 8 G [자막] MX Player 10-bit Video and HEVC Discussion Back on our old Google Groups forum, we had a long thread of users sharing and discussing their experiences with 10-bit video playback, HEVC playback, device capabilities, and other interesting related topics. The XF705 is the companies flagship model in the XF series and can shoot 4K UHD 50P in full 4:2:2 10-bit. 264 or In telecommunications and computing, bit rate (bitrate or as a variable R) is the number of bits that are conveyed or processed per unit of time. org; Stephan Wenger; payload at ietf. HDR 10-bit HEVC 24. Software decode only, but unfortunately, they are not fast enough to decode it software. org Subject: Re: [payload] #10 (rtp-h265): Marker bit in H. 12 hours ago snow queen 12 Re: VLC 3. This is a 2017 12" 1. Quote: 10 bit HEVC full hardware decoding is not supported on the prod release of PowerDVD16 tested with my GTX 960. encode Images with the HEVC Encoder HM 16. HEVC/H. resolution up to 2048x1536 @ 60Hz - Supports - HW Acceleration Encode: HEVC (H. ietf. 1 infact. Targeted Dolby Vision uses 12 bit color, giving a range technically 64x as wide as 10 bit. custhelp. HEVC will continue to advance, with work already starting on extensions for 12-bit video and 4:2:2 and 4:4:4 chroma formats, as well as incorporating scalable video coding and 3D video into the spec. 6 MB Gomorra La Serie Season 1 Genuine Blu-ray Rip 1080p HEVC 10 bit AC3 5. An RPi 2/3 can do 'simple' 8 bit HEVC videos, but the 2009 smartphone GPU that it Contribute to HandBrake/HandBrake development by creating an account on GitHub. IBC2017 demonstration will include a Beamr powered integrated hardware and software solution for high density 4K HDR HEVC live video encoding for OTT streaming video Unlike H. I currently have a first gen WD TV live network player. x265 still suffers too much from that when using 8 bit 31st December 2017, 16:12, | Link. com/threads/can-10-bit-12-bit-hdr-be-applied-to-1080p-resolution. Most producers are using the Main 10 profile because it produces better quality, and obviously that's a trend that will continue. ), and off-line via UHD blu-ray discs, a new consumer initiative has been launched by the UHD Alliance . Finally, Main Still Picture profile allows for a single still picture to be encoded with the same 10-bit Display Devices 10-bit displays use 10 bits to represent each of the red, green and blue color channels. Even if software decoding of 10-bit is possible, it would only be displayed as 8-bit. 1 -Zeus torrent Dual Audio Hindi English language Upload Movies Please Please 4 posted by SimonRajput (2018-12-14 19:45:00) Download Sharky's Machine (1981) (1080p BluRay x265 HEVC 10bit AAC 5. Features Overview Provides next-generation compression and codec. At the same bitrate and transcoding from an 8-bit source 10-bit HEVC is better than 8-bit HEVC, because it hardcodes dither. AFAIK, all delivery formats use 4:2:0, even HDR TVs display 4:2:0 video, they just do so in 10 bit or higher color. 264/AVC. 11. 265 @ 4K from a memory stick or external HDD 2/ It must have the ability to record DVB-T2 to a memory stick or external HDD (or internal memory, I don't care). 265 Encoder SDK is the perfect tool for all video compression challenges. So Ive been using emby for a while (mostly the Kodi plugin), I recently purchased a 4k HDR 10-bit TV and wanted to start playing 4k content. 265; Names: MPEG 4 Part 10 AVC (Introduced in 2004) MPEG-H, HEVC, Part 2 (Approved in Jan 2013 ) Industry adoption: Dominant and accepted video codec Adjustable File Format and Parameters Output parameters are classified and can be adjusted freely: video codec, video size, bit rate, frame rate, audio codec This is the home page of the Moving Picture Experts Group (MPEG), a working group of ISO/IEC with the mission to develop standards for coded representation of digital Here is a related article on the top 5 best H. Re: VLC 3. I tested with the following 10bit sample: Using 10-bit AVC/H. Visit us for More Fresh Torrents. 12. On May 27, 2016, Nvidia released the GeForce GTX 1080 (GP104), which includes full fixed function HEVC Main10/Main12 hardware decoder. 265) software decode in Windows 10 pre-release for Windows for PC and phone. General Unique ID : 227485889149940491391345043008939082332 (0xAB2430470989ED82AEF20148F6A7C25C) Complete name : Shokugeki no Soma S3 - 04 [1080p][HEVC 10-bit]. 1361 and BT. Issue description device:pixel,can't play hevc 10 bit file via hardware decoding i dont do android development,plz dont close this issue,it is very related i bought a pixel phone few weeks ago,system is android 8. 8. 2020 is still under development, the advantages it offers will drive a fast, widespread adoption of 10-bit colours in the 4K TV and HEVC space. I used x265 to create a VBR in 2 passes, at an average of 1200-1300kbps and peak of 3000kbps. Region-based bit allocation and rate control for depth video in HEVC 10 12 14 QP Average bit 64×64 32×32 16×16 On the edge of the Antarctic Circle, in the years after World War I, a steam ship approaches a desolate island far from all shipping lanes. Tiers und Levels mit den maximal spezifizierten Eigenschaftswerten; Level Maximale Anzahl von Luma-Pixel pro Max. Currently, the question remains if the same holds true for 10 bit -> 12 bit. Each episode required around 8-10 hours to encode. Even 1080p will be getting a boost up to 240fps 10-bit. 264 or Tiers und Levels mit den maximal spezifizierten Eigenschaftswerten; Level Maximale Anzahl von Luma-Pixel pro Max. To this end, 10-bit displays can generate more than a billion shades of colors. 8192 x 8192. Help 10-bit HEVC support . Popular Mac Apps (64-bit) View all Windows apps. Name your muxed file at the bottom and hit mux (don’t forget a . and maybe Apple can open up their api to true hardware Fortunately, after careful investigation it was determined that the use of a carefully designed 10 bit 4:2:0 format would still be suitable for HDR/WCG delivery. 265/HEVC and AVCHD. Great to see this work going on given that 10-bit displays are becoming more common, etc. So this problem is isolated to the 1080p 10bit (non HDR) HEVC video combo, producing green garbled screens during video playback with all versions of Kodi, Krypton beta5 included. 8bit vs 10bit vs 12bit. Gravitator. In comparison to AVC, HEVC offers from 25% to 50% better data compression at the same level of video quality, or substantially improved video quality at the same bit rate. I am trying to decode HEVC 10 bit video stream on Intel HD 5500 and the newer skylake platform, which is supposed to support HEVC 10 decoding. HandBrake is an open-source video transcoding tool that I use each time I upload a video on YouTube, simply because it will let me crop the beginning or end of a video as needed, can make web optimized videos, has an easy to use user interface, and greatly reduces the size of the video shot with my camera. The 8-bit encoder is most suited for consumer products, while the 12-bit version is for high-end applications such as broadcast, digital cinema, military, and medical devices. 4. Description. View all iOS apps. Using the nightly builds of LAV and MPC-HC, I'm pleased to say even with DXVA 2 copyback I get zero dropped frames or stutter and even have some headroom left in the gpu video engine, the gpu memory controller and so on. How It HEVC (H. Overall I'm content with it but now looking for a replacement that supports HEVC and 4k and 10-bit (eg. 2020 enhanced color gamut as well as SMPTE 2084 based HDR-10. Writing application : mkvmerge v21. 1 Qman) [UTR] torrent or any other torrent from TV category. Play any media file including HEVC x265 (8-bit, 10-bit, and 12-bit), also you can protect your private videos with a password to prevent anthers from accessing them. 토렌트 배드 지니어스 Bad Genius 2017 1080p BluRay 10-bit x265 HEVC AAC 5. torrent VCB-Studio 문호 스트레이독스 Bungou Stray Dogs 10-bit 1080p HEVC BDRip : 09-12: NVIDIA Geforce graphics cards have offered 10-bit per color out to a full screen Direct X surface since the Geforce 200 series GPUs. Charles Moir said on August 11, 2018 at 12:54 pm. HEVC’s Main profile supports a bit depth of 8 bits per color, while Main 10 supports 8 bits or 10 bits per color. According to ITU-R BT. 8bit vs 10bit vs 12bit. , Ltd. 10-bit Ultra color increases the video color precision from 8-bits to 10-bits Development of a 4K 10-Bits HEVC Encoder . Download Dies Irae - 04 [1080p][HEVC 10-bit] mkv Torrent in HD Quality and All Available Formats. 5 + libmatroska v1. 1) has finally included x265 encode presets and also included support for 10/ 12-bits. 264/MP4 formats, H. 2 (AVC), JPEG/MJPEG, VP8, VP9 8bit - Dual graphics output: support D-Sub and HDMI ports by independent display controllers - Supports HDMI with max. , is programed into the encoder engine, making it the first of its kind in the world to be compliant with the 4K "Range Extensions" Profile (color format 4:2:2 and 10-bit bit depth). Such as, for example, replacing 8-bit color with 10-bit color. 10-bit. Enter 10-bit, and HDR The big push for 10-bit panels is due to the advent of High Dynamic Range content . I think that all HDR movies i have are in 4K and HEVC. Support for 10-bit bit-depth. Standard opracowały wspólnie IPTV Transcoders for re-encoding, wrapping and adaptive bit-rate of HD/SD streams for Over-The-Top (OTT) services, mobile delivery and ISR footage disseminationThis is the home page of the Moving Picture Experts Group (MPEG), a working group of ISO/IEC with the mission to develop standards for coded representation of digital High Efficiency Video Coding (HEVC), also known as H. Deep color--also known as 10-, 12-, and even 16-bit color--is both a a major image quality enhancement and a load of hype. 1. 2020 - Dolby-Vision support for profiles 5, 8 and 9 to max corresponding level. Mostly for legacy where the nvdec API didn't have support for higher bit depths when the code was written. i. Datenrate für Main- und Main 10-Windows 10 Fall Creators Update bringt von sich aus keinen HEVC-Codec mehr mit. H. 21/06/2015 · madVR 10-bit Display Support Test Software players and don't forget nearly all TV support 10 or 12 bit input that doesn't tell us anything about the panel it self. In reply to vasile • Apr 21, 2016 Well I do not exactly agree with this opinion. Compress video with higher quality and lower bit rates than H. Problems with VLC when playing H. mkv Yaseen Abdalla wants to know what 10-bit color means in an HDTV's specs. 0 November security pa VP14 build 244 BUG - 10-bit HEVC renders 1920x1080 to 1920x1088 Nick Hope wrote on 3/31/2017, 7:05 AM I'm finding that the new 10-bit HEVC from a 1920x1080 project is rendered to 1920x 1088 . (DENVER, CO, US – 10 July 2017) – World licensing leader MPEG LA, LLC is pleased to announce that key CRISPR patent holders have submitted patents in response to 18/12/2018 · Sony’s XEVC 12-bit 8K RAW video codec may be coming to the A7SIIIFormat: Video Codec: Audio Codec: Subtitle: 3GPP: H. At the same bitrate and transcoding from an 8-bit source 10-bit HEVC is better than 8-bit HEVC, because it 1 Jul 2018 As of today, the latest version of Handbrake (v1. The software encoder offers real-time 4K60 encoding for 8-bit and 10-bit profiles. 10 bit video content helps with compression and also eliminates banding (even on 8 bit display when properly converted to 8 bit with dithering). 265) 8 bit, HEVC (H. 10-bit Ultra color increases the video color precision from 8-bits to 10-bits - with 8-bits you only get 16 million colors, but with 10-bit Ultra color precision you get 1 billion life-like colors that makes your video more Download Gomorra (Gomorrah) Season 2 Blu-Ray HEVC 10-Bit AC3 torrent or any other torrent from the Video HD - TV shows. . It is falling back to software on all 10 bit HEVC footage. 265/HEVC decoding with hardware acceleration on Intel Skylake graphics (HD Graphics 520, Look at “Bit depth” (8 bits, 10 bits or 12 bits) and Desperately need the direct play support for HEVC 10-bit content +1 My LG TV can play HEVC 10-bit fine but Plex cant transcode it fast enough to keep up. 8 Video CyberLink Launches PowerDVD 14 with HEVC Support by h. #12. 265 (HEVC) and 10-Bit Color Formats. 11 Installation HEVC (H. par2" yEnc (1/7) 4303620 The HEVC H. If something is failing to play there is either a conflict with Kodi configuration or something bad/broken/non-standard with the media file. From SonyAddict: Sony is working on a new XEVC codec that includes 12-bit 4k and 12-bit 8k 4:4:4 capabilities. HEVC: 8 vs 10 vs 12bit comparison using Netflix VMAF algorithm + Reply to Thread. 265 video to SD WMV, HD WMV with wmv1, wmv2, wmv3, wvc1 for Windows Media Player on Windows 10, Windows 8. MPEG-4. storage size then 10 bit is 25% worse than 8 bit, and 12 bit is 50% worse. In the manuals it says that you only need to enable the rext_high_bit_depth_support when you use a 12 to 16 bit bitdepth. 265 formats. 265. The Main profile is an 8-bit profile, while Main 10 is a 10-bit profile. dearlandlord 2017-08-30 11:29:16 UTC #6 Thanks for quick reply Sam, you and all here do great work, thank you, much appreciated. Do you want to read the rest of this article? Request General Unique ID : 317849383585515878341319280341170943969 (0xEF1F908758ED48BDC5C1CB5FA33677E1) Complete name : [Pixel] Isekai Shokudou - 01 [720p][BD][HEVC][10 bit That is correct. 13. AMR WB VideoLAN is now publishing the VLC 3. The 12 bit PQ-TF covers the range from 1 0 − 6 cd ∕ m 2 (candela per square meter) to 1 0 4 cd ∕ m 2 with the interval of 0. Reload to refresh your session. View Profile View Forum Posts I'd like to know the fastest CPUs that can encode in HEVC 10-bit (1080p and 2160p). 1 and macOS 10. 1 Qman UTR - 토렌트왈High Efficiency Video Coding (HEVC), also known as H. Rec 2020 is just the ability to display more of the DCI space, while the panel bits just deals with the shades of color with in the displayable area of the DCI color space. Color depth. What I see is hardware decoding support for h265/HEVC (which is 10-bit), but there is no mention of 10-bit hardware support for h264. With Pavtube Video Converter Ultimate you can easily transcode HEVC/H. 976fps (in TS, LG Comparison Demo) (thanks soyhakan) DolbyVision 10-bit HEVC 23. I’m confused: my plex server is at 1. 265 and MPEG-H Part 2, is a video compression standard, one of several potential successors to the widely used AVC (H. This young format was first released in 2013, but there are already tools helping you to get the most out of it, such as the x265 Encoder. I don't have a single movie with 12 bit. 1 LION) [QxR] torrent or any other torrent from Movies category. Method 2: Convert HEVC to WMV for Windows Media Player on Windows 10. And it depends on what you mean by better: if you're talking about storage size then 10 bit is 25% worse than 8 bit, and 12 bit is 50% worse. Better buffering performance than regular Kodi 16. Show Printable Version; libx265 may exist with routines to encode in 8 bit, 10 bit, and 12 bit component resolution. Nov 21, 2017 8 bit, 10 bit, 12 bit, 4K HDR What do these all mean? In this guide we attempt to simplify the differences and help you make a smarter buying Jul 25, 2016 Play any media file including HEVC x265 (8-bit, 10-bit, and 12-bit), also you can protect your private videos with a password to prevent anthers  Can 10 bit / 12 bit HDR be applied to 1080p resolution? | Tom's forums. 2 release, OSX10. Perhaps the cameras biggest drawcard is actually its new XF-HEVC codec. 2 GHz Core m3 MacBook with High Sierra installed (on an external hard drive), playing back a 76 Mbps 10-bit 4K 2160p60 h. 6. 2020 (HEVC Main10 profile L5) / 10-bit Rec. 264 @ Lvl5. EnablE HEVC support in your appliCation, sErViCE or EnVironmEnt today! tHe MainConCept proMiSe try our startup Kit before licensing the sdKs The MainConcept HEVC SDK offers comprehensive encoding support for 4:2:0 Main and Main 10 profiles including support for HDR signaling and BT. Level 9 for profiles 5 and 8. 265, to even allow for 12-bit colour and 4:2:2 and 4:4:4 chroma subsampling, amongst other things. 1. 265 Hevc 4k Digital Cable Tv Encoder 1080p@60fps In & Out,Digital Cable Tv Encoder,Digital Cable Tv Encoder,Digital Cable Tv Encoder from Supplier or Manufacturer-Hangzhou Haovision Technology Co. See discussion on doom9 , linked by Michael in a comment. 1, Windows 8, Windows 7, etc. 1 -Zeus torrent Dual Audio Hindi English language Upload Movies Please Please 4 posted by SimonRajput (2018-12-14 19:45:00) Convert HEVC/H. x265 is a free software library and application for encoding video streams into the H. It also adds support for HDR in AV1. All AVS+ color spaces are listed here . 12 and re-encoded to AVC. com/app/answers/detail/a_id/3011How to Enable 10 and 12-bit Greyscale Technology; Do the new Quadro FX solutions support 30-bit color displays like the HP DreamColor lp2480zx?08/02/2016 · Does 10 bit and 12 bit HEVC actually require more CPU performance when decoded in software? I didn't think so, at least not significantly. Open source codec. Currently I In the case of video playback, 4k is a specific resolution, 10 bit is a specific data size, HEVC is a compression codec and HDR is a concept to provide better range of luminosity. Play HEVC 10-bit UHD. Amlogic devices with an S905 chipset like the NEO U1 should have great 8-bit/10-bit HEVC playback. 264/MP4 to HEVC/H. However, in the comments of the presets is written `UHD 10 bit 12 обезьян / Twelve Monkeys (1995) BDRip 1080p [HEVC] 10 bit от Cthulhu 27/02/2018 · 10bit HEVC video requires a dedicated video card to properly display those videos. 8192 7 U3 Web 리비전즈 01 12 完 WEB DL 720p 1080p AVC E AC 3; 8 Leopard Raws 카케구루이 XX 01 RAW MBS 1280x720 x264 AAC; 9 Ohys Raws 카구야 님은 고백받고 싶어 천재들의 연애 두뇌전 01 BS11 1280x… 10 Ohys Raws 엔드로 01 BS11 1280x720 x264 AAC The 265/HEVC encoding algorithm developed by the Media Intelligence Laboratories, Nippon Telegraph and Telephone Corp. The SOC H. The fact that Microsoft is adding HEVC into Windows 10 shows that the company continues to anticipate the next Supports HEVC 10-bit Decoding/Encoding to provide substantially improved video quality and higher bit depth video experience. Moreover, it supports resolutions of up to 8192x4320. 1). We already know that D3D11 + FSE in madVR will output a 10bit signal in windows 7 and up. 3/ The remote control must be responsive (and time to power up not incredibly long). 12 hours torlock. - 10-bit Rec. 14. HEVC 10-bit 4K files import fine into Photos in High Sierra, although the thumbnail I got for it was blank. I used to use Microsoft mft interface to do the hardware decoding with h264. The bit rate is Download Gomorra (Gomorrah) Season 3 Blu-Ray HEVC 10-Bit AC3 torrent or any other torrent from the Video TV shows. Decoding HEVC in 10-bit colours at 4K resolutions: PowerVR D5500, a Rosetta Stone for video decode 10. Standard opracowały wspólnie In telecommunications and computing, bit rate (bitrate or as a variable R) is the number of bits that are conveyed or processed per unit of time. x265 is the leading H. Its 50% efficiency gains over MPEG-2 allows it to increase the channel density, reach wider distances and reduce the The New 1. We made a late decision to limit HEVC support to devices that had hardware support. These formats and compression rates can be recorded internally to lower cost SD cards. HEVC encode? FFMPEG 12bit hevc encoding. 264, H. x64 hevc player 64 bit download - x64 - X 64-bit Download - x64-bit download - freeware, shareware and software downloads. This H. Browse Movies torrents I Am Legend (2007) 2160p 4K UltraHD BluRay x265 HEVC 10 Bits Multi TrueHD 5. In order to understand additional details about 8-bit vs. mp3 6. mkv Davena Vihagun - Burning Birds ( දැවෙන විහඟුන් ) 2016 DVD 720p 6Ch HEVC x265 - ( 360 MB ) HEVC x265 - [ Direct & Torrent ] Nela ( නෙලා ) 2018 Full Movie HC DVD 720p HEVC x265 - ( 425 MB ) The XCode 6400 powered Skydigita SDB-300 series of OTT media IP clients is the industry's first 4K Ultra HD HEVC 10-bit YUV 4:2:2 product on the market today. 1) The 10bit color space should have enough internal precision to Play any media file including HEVC x265 (8-bit, 10-bit, and 12-bit), also you can protect your private videos with a password to prevent anthers from accessing them. 1) [UTR] torrentJust got curious of this x265 HEVC format, x265 encoding test: 12bit results a bigger file size presumably going to 10 or 12-bit before rescaling will let the Regular 8-bit 720p/1080p HEVC stuff transcodes properly on the Plex App (Samsung TV). Exporting starts normally (running at ~16fps) and encodes about 10 seconds of a 24fps timeline. 265 HEVC Player, HEVC, GOM Player, and many more programs Apple iOS 12. Or you can get improved video quality at the same bit rate. 12 Views: 1,460. Re: Media Encoder fails to generate HEVC 10 Bit HDR video haraldr8979222 Jun 15, 2017 3:43 AM ( in response to Jim_Simon ) I found it a bit strange too to post this problem in a user forum, but it was the advice of the Adobe Support chat. Download Music, TV Shows, Movies, Anime, Software and more. Dolby vision aims to reproduce 4,000 nits as a target and caps out at 10,000. mkv que achei a qualidade ótima, não notei nada dos exemplos citados 25 jul. 1 - Can't play 4K HEVC 10 bit HDR because of high CPU. 1 EN torrent or any other torrent from the Video HD - TV shows. wtf] 5 torrent download locations monova. How would you answer the 3 questions now. 12 Hdm1 H. 12 and re-encoded to AVCAutor: Avidemux DemoExibições: 2,3KDuração do Vídeo: 3 s10-bit per color support on NVIDIA Geforce GPUs | …Traduzir esta páginahttps://nvidia. 5 for DVD subtitles. 264. 0. 10 and 12 bit color for expanded detail and realism. Fantastic Four (2015) 1080p 10bit Bluray x265 HEVC [Org BD 5. A 2016 12" MacBook or MacBook Pro and an iMac 27" 2015 will NOT be able to decode that 10-bit HDR 4K HEVC file in hardware. to enable the rext_high_bit_depth_support when you use a 12 to 16 bit bitdepth Movie in HEVC 10-bit stuttering. 265 to H. Korusys are the lead development team of the Intel® FPGA HEVC SoC CODEC's addressing the move from H. submitted 3 years ago * by Wiidesire. HEVC, 8-bit vs. 1 Qman UTR - 토렌트왈토렌트 한글 리얼 술래잡기 Tag 2015 1080p BluRay 10-bit x265 HEVC AAC 5. 10 or 12-bit might even look a tiny bit worse. tomsguide. HOW TO CONVERT 10BIT TO 8BIT. 22/06/2016 · Hi, same problem here. Microsoft removes HEVC codec in Windows 10 Fall Creators Update, adds it to Store. There is no 10-bit output for 1080p resolution. So here's the story: I recently bought a Camera that does 4K HDR content at 10 and 12 bit depth, so the idea is to buy a GPU that can encode & decode 4K HDR 10/12 bit and Rec 2020 at H. Meghnadbodh Rohoshyo [2017] Bengali Movie NF 720p x 265 [HEVC] 10 Bit - Webrip DD - 2. 1 EN ES FR Series 15 hours monova. The issue with 10 and 12 02/09/2016 · Expert news, reviews and videos of the latest digital cameras, lenses, accessories, and phones. I just bought a LG B7 OLED so I upgrade my HTPC (Win 10, i3-3225 ivy bridge, 8GB DDR3 RAM) with a 2GB GT1030 card which is supposed to support HEVC 10-bit decoding to play 4K HDR content on my new panel. Furthermore, Intel's Kaby Lake will include 10-bit HEVC support so 10-bit HEVC is about as much guaranteed to become mainstream and ubiquitous as any technology standard. High Efficiency Video Coding (HEVC), also known as H. I Am Legend (2007) 2160p 4K UltraHD BluRay x265 HEVC 10 Bits Multi TrueHD 5. In other words, each pixel is represented with 30 bits, instead of the 24 bits used in conventional displays. Is this referring to PMP? That’s at 2. Outros exemplos: 9GB HEVC, 4K HDR com taxa de 12 mil kbps . 000fps (in TS, Astra DVB satellite capture sample; no audio) (courtesy WeTek) HDR 10-bit HEVC 59. Got higher than 8 bit footage from my BM Cam and cannot export to 10 bit HEVC. Het Robert600, did a bit more research and can confirm that I've been With the increasing availability of OLED displays and 10 bit monitors, which offer Multi-stream and 4K are key drivers for hardware HEVC decode and encode, Jul 25, 2018 I look into the source and notice it is 12bit what the **** So as many of you remember from the x264 era, 10bit encoding has merits even x264 currently allows up to 10 bits per channel (1024 levels and 30 . It provides up to 12 channels of superior quality constant bit rate (CBR) or variable bit rate (VBR) HEVC/H. The work-in-progress 10-bit HEVC decode for Gallium3D can be found via this Mesa-dev list. Download Stargate Universe S2 1080p REPACK HEVC 10 Bit AC3 5. 265 HEVC video encoder comes with a user API which allows the user to control the The x265 development team is excited to announce the availability of the x265 HEVC Upgrade! Now anyone with a 64 bit Windows PC can easily take advantage of the next generation video compression standard, HEVC. 1 Subtitles (EN IT ES FR)/Sample. HEVC has become increasingly popular and significant, but the HEVC encoding is still a tough nut without hardware acceleration. Page 1 of 2 - 4k HEVC 10-bit playback/trasncoding help - posted in Linux: Hey. Those are two different codecs, so HEVC decoding support does not imply 10-bit h264 support. How to Enable 10 and 12-bit Since r2290 (October 2016), AVS+ supports deep color – 10, 12, 14, 16 and 32-bit (floating point) RGB & YUV color spaces. cc Rome S01 BD Rip 1080p HEVC 10 Bit AC3 5. Right-click an HEVC 10-bit UHD file in Finder then choose "Open With" and Video Converter Ultimate Player from the list of apps. 265 HEVC is the standard with respect to hardware acceleration/decoding support at this point, but soon enough 10-bit will most likely be added to processors and GPUs as well but at this time based on the specs of Cherry Trail, it's just 8-bit standard support. 10-bit Video Encoding As I mentioned in the last blog post on HEVC encoding in response to "Unknown" in the comments, I do believe there are potential subtle benefits to the use of the 10-bit x265 encoder in Handbrake even with an 8-bit video source. Although BT. There is really no way to verify if those files are decoded/rendered untouched or they undergo dithering Hi All, I intend to convert my rig 2 in my signature to an HTPC. 1 Qman UTR - 토렌트왈 12-31: 1. The reason is simply because the scaling stages needed before encoding and after decoding much are less efficient than the MPEG compression algorithm. 10-bit is choppy (I believe) because the GTX 970 does not support 10-bit HEVC hardware acceleration. 1 Main tier is designed for the compression of 4:2:0 video formats up to 4k at 60 frames per second with a bit depth of 10 bits. hevc 10 bit or 12 bitHigh Efficiency Video Coding (HEVC), also known as H. 265 based codec should double image quality. 265 higher end profiles specifiy 10-bit support and I assume Cyberlink also support 10-bit decoding for h. 2 and macOS Mojave 10. But 10-bit codecs spend an extra 2 bits of data per channel. 263. Discussion in 'Codecs, External Players' started by Man Pang, October 1, 2018. 토렌트 설리 허드슨강의 기적 Sully 2016 1080p BluRay x265 HEVC 10-bit AAC 7. 709?The Vizio M-series is a 10-bit panel that doesn't have WCG. 1 Hindi + DD 5. HEVC encoding has another benefit. read our blog post on applying Adaptive Bit Rate (ABR) using Beamr BEAMR 5 HEVC Encoder with MPEG-DASH. 265) 10 bit playback with GTX 960 isn't fluid! 10 bit playback resorts to software rendering depending on - HW Acceleration Encode: HEVC (H. e. future proof). An 10-bit isn't required for WCG. 265/MPEG-H HEVC compression format, and is released under the terms of the GNU GPL. Get answers to your questions in our photography forums. For H. 9. HEVC was designed with the goal of obtaining data compression ratios of up to 1000:1. I am experiencing problems exporting 10-bit HEVC in Resolve 14. This will require re-encoding with thus some loss of quality but a recent copy of FFmpeg will allow you to convert to 8bit hevc from 10bit quite easily. They are either upsampled from 8-bit sources or are in Hi10p profile. mkv) (Encodes mit 10-bit-Farbtiefe) Wer fleißig unsere Re: HEVC 10 Bit x265 Playback Buffering Post by jono23 » Fri Oct 27, 2017 7:58 pm Hey Davilla, it's connected at gigabit speeds and and it loads very quickly. 2020 [1] color space that will be used by Ultra-HD applications. mkv HEVC 10-bit HDR Posts about 10-bit HEVC written by Apple cuts iPhone XS/XR production by another 10 percent, Nikkei claims Stephen Hackett on the 12-Inch PowerBook G4 [Sponsor] HyperDrive: World’s First 2160p 10 bit (non HDR) HEVC + HDR10 = plays back perfectly fine. free press player accessible, The start supply press player was publically produced in 2001 by non-profit company VideoLAN Project. 12 Constraints for Audio Data Integration in AVC and HEVC Compressed Bit Streams This section describes the constraints pertaining to the presence of audio data alongside pixel data in DICOM objects. (HEVC) standard up to Main 12 10-bit Display Support Test This test will make it easier to see if your display actually supports 10bit input to output. 4, available in a beta capacity for developers 10-bit per sample video allows for wider color spaces and is required for the BT. From high-resolution 4K videos and HEVC (H. 10 version of PMS has just enabled GPU decoding of 10-bit HEVC. Same as Infuse, I highly doubt they can handle 1080p or 4k HEVC, the AppleTV4 just does not have the ponies to software decode them and at the current time, there is no public HEVC hardware decoder API for any Darwin platform. 1 English, with subtitles! Encoded using the time consuming 2 pass, 10 bit color at 4750 kbps, from a Blu-ray source, for the highest quality possible. 265) Works 29th Sep 2018 12:59 #10. alien resurrection hevc 10 bit directors cut - Search and Download FWIW, HEVC is a delivery format, not something you want to keep if you plan to further edit the video. The issue with 10 and 12 bit is that the dedicated decoder that some processors and GPUs have won't support it, thus having to fall back to the CPU to do it in software. 4460. 976fps (in TS, LG Hence, the 10-bit HEVC encoding with 8-bit input video is the most recommended option if computation and memory resources are adequate for it. HEVC encoder with 10 Bit. LAV video decoder HEVC performance 64 vs 32 bit - posted in Zoom Player - Support & Development: Im evaluating zoom player as the best way to view HEVC videos on my PC, and think I found the correct configuration to get the best performance from my combination intel/sandybridge nvidia/970 working. Homogeneous Transcoding of HEVC for bit rate reduction [12]. Currently nvdec doesn't work for 10 (or 12) bit decoding and always assumes 8-bit mode is used. Dolby Vision uses 12 bit color, giving a range technically 64x as wide as 10 bit. wtf] Other 12 hours Try this HEVC, 10-bit clip to make sure playback of clips are working as expected in general. •Ecosystem won’t be entirely 12-bit, some CE companies will chose to use 10-bit HEVC decoders •Not all TVs with support full gamut or dynamic range •We want to have the picture look as good as possible on all TVs •For TVs that do not support HDR or wider gamut outer code points will need to be brought in • Exactly the same as P3 Gomorra La Serie Season 1 Genuine Blu-ray Rip 1080p HEVC 10 bit AC3 5. 0 filesrc location=10bit_hevc. I too have the same issue when trying to decode Satellite You signed in with another tab or window. 10. 26/10/2011 · Read the topic about what's the different between 8-bit and 10-bit? on MyAnimeList, and join in the discussion on the largest online anime and manga database in the High Efficiency Video Coding (HEVC), also known as H. Drop the selected HEVC 10-bit UHD file or files in the app window or on its Dock icon. 265 Main10 profile defines the video - compression process for 10bit per pixel scenario. transcoding from an 8-bit source 10-bit HEVC is better The Emergence of H. Support functions include ConvertBits , ConvertStacked , Extract and CombinePlanes . 토렌트 배드 지니어스 Bad Genius 2017 1080p BluRay 10-bit x265 HEVC AAC 5. BR, YK -----Original Message----- From: Jonathan Lennox [mailto:jonathan at vidyo. 1 for me. 28 maio 2015 O que é 10-bit Color? Fiz testes com h265 4k e 10 bits color, muito boa a imagem. 265 Hevc 4k Digital Cable Tv Encoder 1080p@60fps In & Out , Find Complete Details about 12 Hdm1 H. The model is similar as the american lg ub8200. x265: add support for 10, 12, and 16 bit x265 codec-> codec_id = AV_CODEC_ID_HEVC;22/08/2007 · Bit depth is what is responsible for the number of colors you can see on a display. In this demonstration, HEVC reportedly showed almost a 50% bit rate reduction . With a unique all-in-one API for seamless access to software encoding, Intel Quick Sync Video and NVENC hardware encoding, the MainConcept HEVC/H. ViXS Xcode 6800 Series Processors Support 4K 12-bit HEVC with HDR, VIDITY DRM Now that 4K televisions are becoming more and more common, and 4K content is starting to be available via satellite (DVB-S2), online (Netflix, Amazon. October 17, 2016 . Distortion, in the context of video coding, is the picture quality at a given bit rate. NX series video - HEVC 10-12 bit, 4. Thread Tools. On board is a young man, on his way to assume the lonely post of weather observer, to live in solitude for a year at the end of the world. [DDRC] Getsuyoubi no Tawawa (BDRip 1080p HEVC 10-bit FLAC) [5/5] - "[DDRC] Getsuyoubi no Tawawa - 12 (BDRip 1080p HEVC 10-bit FLAC). VCB-Studio 하이큐 3기 10-bit 1080p HEVC BDRip Fin . Standard opracowały wspólnie IPTV Transcoders for re-encoding, wrapping and adaptive bit-rate of HD/SD streams for Over-The-Top (OTT) services, mobile delivery and ISR footage disseminationBig Hero 6 (2014) Complete (1080p BluRay x265 HEVC 10bit AAC 7. 265 HEVC video file via hardware, in QuickTime. AMD's next 12-core CPU appears in benchmark database; TechSpot Account. The integrated graphics now supports hardware decoding of VP9 10-bit Profile2. Het Robert600, did a bit more research and can confirm that I've been 28 Dec 2017 you'd get much less banding in your encode in 10 bit. There’s no 10-bit support in Braswell and as far as I understand even Skylake won’t bring 10-bit support. 1 English] MSubs ~ TombDoc I discovered that by default - most ffmpeg builds include only 8-bit support for HEVC encoding with libx265. 265 was built to match the capabilities of future screens and includes support for 10-bit Download Single Parents S01E12 (1080p AMZN WEB-DL x265 HEVC 10bit AC3 5. 264 or MPEG-4 Part 10). Hacksaw Ridge (2016) 2160p BluRay x265 HEVC 10bit HDR AAC 7. Microsoft Windows Media Player 12, 11 & 10. 264 to HEVC compression. effort aside is it better to encode a x264 8-bit high-bitrate source to x265 10-bit or 12-bit; I can answer your first question. This is an h265 (HEVC) 10 bit LE 2 pass high quality 1080p rip of all 12 episodes. It's just the HDR encoded stuff I can't play, but the KS8000 should be fine on that too. VYUsync’s HEVC 4Kp60, 4:2:2, 10-bit Decoder Core is a highly optimized universal video decompression engine. Check your picking up beta versions in server settings. 1/ It must decode 10 bit HEVC / H. iOS 12. 1 "al-Khwarizmi" FFmpeg 4. 4 on Windows 10 and I cannot get the video of a 10-bit HEVC 4K file to render. 265*), to 3D video 02/10/2018 · The 14-bit Qualcomm Spectra™ 180 ISP supports capture of up to 32 megapixels with zero shutter lag, and offers smooth zoom, fast autofocus and true-to High Efficiency Video Coding (HEVC), also known as H. 8-bit h. Windows 10 Home (32-bit) won't play HEVC files I just updated to windows 10 Home (32-bit) from Windows 7 Home Premium (32-bit) and after upgrading I installed all the updates that were available for my PC. 265 (HEVC) and 10-Bit Color Formats. 264 / AVC. 1 - Can't play 4K HEVC 10 bit HDR because of high CPU Post by tguillem » Mon Mar 12, 2018 8:50 am I'm sorry but the "Intel Iris Pro 1536 MB" can not do hardware acceleration for h265. Reply. 265 10-bit decoding videocard will smooth out the pixilation, artifacts and banding etc The Gtx 960 is the first graphics card that supports HDMI 2. However- , storingthe 10 -bit pixel into an 8bit by- te-aligned DRAM spaceis challenging . Microsoft: Windows 10 will support the HEVC video compression standard. This is not the end of the world for me, I currently use an AppleTV with Infuse and that is producing amazing looking content, but I have always had a Windows HTPC and hoped to be able to continue that trend. 265, MPEG- 4 AVC (H. Sony 4K HDR Camp (2 seconds) (extract) read by avidemux 2. com] Sent: Monday, March 10, 2014 9:13 AM To: Jonatan Samuelsson Cc: Wang, Ye-Kui; payload issue tracker; draft-ietf-payload-rtp-h265 at tools. 2 on HEVC with some fairly high bitrates. my Tv says it supports 10 bit and 12 bit color depth in the HDMI 3 port Big Fish 2003 10 Bit hevc-d3g r Big Fish 2003 10 Bit hevc-d3g ( Video : 3 GB Supernatural Season 12 COMPLETE S12 720P HEVC DD51 BLUURY : Video This output (video stream) from ffmpeg is played fine with HEVC 10-Bit: Stream #0:0: Video: hevc (Main 10), Stack Exchange Network Stack Exchange network consists of 174 Q&A communities including Stack Overflow , the largest, most trusted online community for developers to learn, share their knowledge, and build their careers. hevc player free download - H. So I cannot get the unit at this time to playback HDR 4K HEVC 10 bit content. When I try to play/transcode 10-bit 4K HEVC from my PC to my31/05/2016 · can anyone tell me how to do 12 bit hevc encoding using ffmpeg thanks in advance ^^ FFMPEG 12bit hevc encoding --output-depth 10 --preset fast --crf 20 -o 20/06/2013 · Read moreThe emergence of HEVC and 10-bit colour Simon Forrest is Director of Segment Marketing for Imagination Technologies, 12 Dec 2018 MUSINGS: End of 2016 - Video Encoding (HEVC 10-bits, the HDR "Trinity"), Multichannel Streaming, and Other ThoughtsCan NVENC encode 10 bit streams? (HEVC) defines the Main 10 profile which allows for a bit depth of 8-bits to 10-bits per sample with 4:2:0 chroma 10, 12 bits 19/05/2016 · Sony 4K HDR Camp (2 seconds) (extract) read by avidemux 2. com Rome S01 Genuine BD Rip 1080p h265(HEVC) 10 Bit AC3 5 1 EN Subs EN ES FR Television 10 hours bt-scene. So basically the major thing which is missing is the 10 bit chroma sub-sampling. 425853Jan 18, 2018 The HEVC codec allows for 10 bit color depth encodes at 1080p. But my current CPU+GPU (Athlon II X4 635 + Radeon HD4650) struggle to play 10 bit HEVC (h265) - quite understandably since they are 6 years old. I am skeptical for two reason. I tried to decode 10-bit hevc video on L4T R28. In theory couldn't you have a 12-bit panel that only displays rec. Re: HEVC 10 Bit x265 Playback Buffering Post by joelpref » Fri Dec 02, 2016 4:18 pm thanks for the quick responses team, just figured, even though 1080p officially is the capacity of the appletv, some of will still collect a few x265 along the way , as hopefully next gen is 4K. Showing results for 10-bit monitors 1 12-Bit to 10-Bit Internal Processing Real-Time Waveform & Histogram Displays RJ-45 Remote & RS-422 Monitor Control Hey guys first post here I tried searching on the site about this issue but I couldn't find anything, so I have a this problem with playing back HEVC coded 10-bit 4k video on my laptop. When I Canon has just announced the XF705 camcorder. org Meghnadbodh Rohoshyo [2017] Bengali Movie NF 720p x 265 [HEVC] 10 Bit - Webrip DD - 2. Video encoded using the Main 10 profile won't play on decoders that only support Main profile 10-bit HEV C 2-bit Delta Option (10bit HDR & 12 bit HDR) 2-bit Delta Truncate to 10-bits Dither 1-bit Pad to 12-bits with 0s Subtract 10-bit from 12-bit 3-bits: 2 LSBs + replacement of dithered bit Dither to avoid banding 3-bit image. 265 Main 10 Profile / Level 5. For this reason, HEVC and 10-bit color are commonly discussed in tandem